Killjoys S02E03 720p HDTV x264-AVS[rartv]

seeders: 1613
leechers: 1508
updated:
Added by z0n3212.57M in TV
Torrent verified. Downloaded 27 times.

Download Fast Safe Anonymous
movies, software, shows...
  • View all Killjoys episodes
  • Episode title: Shaft
  • Episode: S02E03
  • Air date: 15 July 2016
  • IMDb link: 3952222
  • TVmaze link: Killjoys
  • Original run: 19 June 2015 — Present
  • Summary:

    In the Quad, a solar system on the brink of a bloody interplanetary class war, a fun loving trio of bounty hunters attempt to remain impartial as they chase deadly warrants.

    Written by Rocky_45122.1K Last edited by Hand_of_Doom, 11 months ago
Available in versions: 1080p720p480pHDTVWEBRipx264x265
Killjoys S02E03 720p HDTV x264-AVS[rartv] (Size: 992.53 MB)
  Killjoys.S02E03.720p.HDTV.x264-AVS.mkv 992.53 MB
  rarbg.com.txt 34 bytes
  Killjoys.S02E03.720p.HDTV.x264-AVS.nfo 56 bytes

Description


https://rarbg.to
Killjoys.S02E03.720p.HDTV.x264-AVS[rartv]

image
Screens :

image
Mediainfo :

Video
ID : 1
Format : AVC
Format/Info : Advanced Video Codec
Format profile : [email protected]
Format settings, CABAC : Yes
Format settings, ReFrames : 5 frames
Codec ID : V_MPEG4/ISO/AVC
Duration : 41mn 1s
Bit rate : 2 931 Kbps
Width : 1 280 pixels
Height : 720 pixels
Display aspect ratio : 16:9
Frame rate mode : Constant
Frame rate : 23.976 (24000/1001) fps
Color space : YUV
Chroma subsampling : 4:2:0
Bit depth : 8 bits
Scan type : Progressive
Bits/(Pixel*Frame) : 0.133
Stream size : 860 MiB (87%)
Writing library : x264 core 148 r2694 3b70645
Encoding settings : cabac=1 / ref=5 / deblock=1:0:0 / analyse=0x3:0x113 / me=umh / subme=8 / psy=1 / psy_rd=1.00:0.00 / mixed_ref=1 / me_range=16 / chroma_me=1 / trellis=1 / 8x8dct=1 / cqm=0 / deadzone=21,11 / fast_pskip=1 / chroma_qp_offset=-2 / threads=22 / lookahead_threads=3 / sliced_threads=0 / nr=0 / decimate=1 / interlaced=0 / bluray_compat=0 / constrained_intra=0 / bframes=3 / b_pyramid=2 / b_adapt=2 / b_bias=0 / direct=3 / weightb=1 / open_gop=0 / weightp=2 / keyint=250 / keyint_min=23 / scenecut=40 / intra_refresh=0 / rc_lookahead=50 / rc=crf / mbtree=1 / crf=18.0 / qcomp=0.60 / qpmin=0 / qpmax=69 / qpstep=4 / ip_ratio=1.40 / aq=1:1.00
Default : Yes
Forced : No
Color range : Limited
Matrix coefficients : BT.709

Audio
ID : 2
Format : AC-3
Format/Info : Audio Coding 3
Mode extension : CM (complete main)
Format settings, Endianness : Big
Codec ID : A_AC3
Duration : 41mn 1s
Bit rate mode : Constant
Bit rate : 384 Kbps
Channel(s) : 6 channels
Channel positions : Front: L C R, Side: L R, LFE
Sampling rate : 48.0 KHz
Frame rate : 31.250 fps (1536 spf)
Compression mode : Lossy
Stream size : 113 MiB (11%)
Default : Yes
Forced : No

Related Torrents

torrent name size files age seed leech

Sharing Widget


Download torrent
992.53 MB
seeders:19
leechers:115
Killjoys S02E03 720p HDTV x264-AVS[rartv]



To share this torrent use the code below and insert it into comments, status messages, forum posts or your signature.

Torrent: Killjoys S02E03 720p HDTV x264-AVS[rartv]

Trackers

tracker name
udp://tracker.openbittorrent.com:80/announce
udp://tracker.publicbt.com:80/announce
udp://tracker.coppersurfer.tk:6969/announce
udp://9.rarbg.me:2710/announce
udp://p4p.arenabg.com:1337/announce
http://tracker.trackerfix.com/announce
udp://9.rarbg.to:2710/announce
udp://tracker.opentrackr.org:1337/announce
µTorrent compatible trackers list

Locations

name
KickassTorrents
Torrent hash: EBFC40B4DA5526451E873BEA67645E737BB7FDFD

All Comments

audio
9/10
video
9/10
please, leave only comments related to that torrent
Sign In

audio: 10video: 10
nice show and good quality thanks
audio: 10video: 10
thank you

User Opinions

Rocky_45122.1K, mattmaing10.16K, Cat06047250, hm1bryan.seth4597, bolvirk3670, Obey2485, stlawr1557, xLunchbox414, snowman4359277, kikofgp147 ... And 7 more